Khatia Buniatishvili, Israel Philharmonic Orchestra, Zubin Mehta – Liszt, Beethoven: Piano Concertos (2016) 4K UltraHD + Blu-Ray

Year: 2016
Label: Paramax / Sony Music Entertainme
Genre: Classical
Duration: 00:56:08
Director: Christophe Boula
Conductor: Zubin Mehta
Performers: Khatia Buniatishvili, piano; Israel Philharmonic Orchestra

Video quality: Blu-ray
Format / Container: BDMV
Video codec: H.264
Audio codec: PCM, Dolby Atmos
Video Stream: MPEG-4 AVC 21999 kbps / 1920 * 1080i / 29,970 fps / 16: 9 / High Profile 4.1
Audio # 1: English Dolby Atmos (TrueHD) 7.1 / 48 kHz / 4460 kbps / 24-bit (AC3 Embedded: 5.1-EX / 48
Audio # 2: English LPCM 2.0 / 48 kHz / 2304 kbps / 24-bit

Sony Classical in cooperation with Paramax Films and Dolby releases the world premiere of the first classical concert on video mixed in the new sound technology of Dolby Atmos®. Captured by Paramax Films in the orchestra’s home city of Tel Aviv in July 2015, Khatia Buniatishvili and Zubin Mehta unite in a concert with the Israel Philharmonic Orchestra at its resident venue of Charles Bronfman Auditorium. Available on DVD and Blu-ray, last-named with Dolby Atmos technology, the legendary conductor and the 2016 ECHO Klassik Award winning pianist showcase a performance of the piano’s most famous orchestral repertoire; Beethoven’s infectious and virtuosic Piano Concerto No. 1. and Liszt’s Piano Concerto No. 2 with its waves of sound and grandiose third movement. Last concerto proven to be “a superb showpiece for Buniatishvili, whose technical prowess, theatrical manner and innate glamour mark her out as a natural Liszt interpreter” writes the Guardian.

Tracklist

Franz Liszt (1811-1886)
• Concerto for Piano and Orchestra No. 2 in A Major, S 125
1. I. Adagio sostenuto assai – Allegro agitato assai 7:25
2. II. Allegro moderato – Allegro deciso 8:42
3. III. Marziale un poco meno allegro 2:42
4. IV. Allegro animato – Stretto 3:19
Ludwig van Beethoven (1770-1827)
• Concerto for Piano and Orchestra No. 1 in C Major, Op. 15
5. I. Allegro con brio 14:20
6. II. Largo 9:42
7. III. Rondo. Allegro Scherzando 10:53

pic pic pic pic
pic pic pic pic

DISC INFO:

Disc Title:     Liszt, Beethoven.Piano Concertos.Khatia Buniatishvili, IPO, Zubin Mehta.2016.BD1080i
Disc Size:      13 872 256 706 bytes
Protection:     AACS
BD-Java:        No
BDInfo:         0.5.8

PLAYLIST REPORT:

Name:                   00002.MPLS
Length:                 0:34:57.295 (h:m:s.ms)
Size:                   8 404 328 448 bytes
Total Bitrate:          32,06 Mbps

VIDEO:

Codec                   Bitrate             Description
-----                   -------             -----------
MPEG-4 AVC Video        21999 kbps          1080i / 29,970 fps / 16:9 / High Profile 4.1

AUDIO:

Codec                           Language        Bitrate         Description
-----                           --------        -------         -----------
LPCM Audio                      English         2304 kbps       2.0 / 48 kHz / 2304 kbps / 24-bit
Dolby TrueHD Audio              English         4460 kbps       7.1 / 48 kHz / 4460 kbps / 24-bit (AC3 Embedded: 5.1-EX / 48 kHz / 640 kbps)

FILES:

Name            Time In         Length          Size            Total Bitrate
----            -------         ------          ----            -------------
00002.M2TS      0:00:00.000     0:34:57.295     8 404 328 448   32 058

General
Unique ID                                : 269604701137053337784249088511217159094 (0xCAD3FA0973FBBCA0D75FAFFCD49ACBB6)
Complete name                            : Khatia.Buniatishvili.and.Zubin.Mehta.Beethoven.2016.2160p.UHD.MBLURAY.x265-SNTN\Khatia.Buniatishvili.and.Zubin.Mehta.Beethoven.2016.2160p.UHD.MBLURAY.x265-SNTN.mkv
Format                                   : Matroska
Format version                           : Version 4 / Version 2
File size                                : 13.6 GiB
Duration                                 : 34 min 55 s
Overall bit rate mode                    : Variable
Overall bit rate                         : 55.7 Mb/s
Movie name                               : Khatia Zubin
Encoded date                             : UTC 2018-10-15 12:00:03
Writing application                      : mkvmerge v23.0.0 ('The Bride Said No') 64-bit
Writing library                          : libebml v1.3.6 + libmatroska v1.4.9

Video
ID                                       : 1
Format                                   : HEVC
Format/Info                              : High Efficiency Video Coding
Format profile                           : Main [email protected]@High
Codec ID                                 : V_MPEGH/ISO/HEVC
Duration                                 : 34 min 55 s
Bit rate                                 : 45.7 Mb/s
Width                                    : 3 840 pixels
Height                                   : 2 160 pixels
Display aspect ratio                     : 16:9
Frame rate mode                          : Constant
Frame rate                               : 24.000 FPS
Color space                              : YUV
Chroma subsampling                       : 4:2:0 (Type 2)
Bit depth                                : 10 bits
Bits/(Pixel*Frame)                       : 0.230
Stream size                              : 11.2 GiB (82%)
Writing library                          : x265 2.8+66-88ee12651e30:[Windows][GCC 6.3.0][64 bit] 10bit
Encoding settings                        : cpuid=1049583 / frame-threads=6 / numa-pools=32 / wpp / no-pmode / no-pme / no-psnr / no-ssim / log-level=2 / input-csp=1 / input-res=3840x2160 / interlace=0 / total-frames=50289 / level-idc=51 / high-tier=1 / uhd-bd=0 / ref=4 / no-allow-non-conformance / repeat-headers / annexb / aud / hrd / info / hash=0 / no-temporal-layers / no-open-gop / min-keyint=24 / keyint=240 / gop-lookahead=0 / bframes=4 / b-adapt=2 / b-pyramid / bframe-bias=0 / rc-lookahead=25 / lookahead-slices=4 / scenecut=40 / radl=0 / no-intra-refresh / ctu=64 / min-cu-size=8 / rect / no-amp / max-tu-size=32 / tu-inter-depth=1 / tu-intra-depth=1 / limit-tu=0 / rdoq-level=2 / dynamic-rd=0.00 / no-ssim-rd / signhide / no-tskip / nr-intra=0 / nr-inter=0 / no-constrained-intra / no-strong-intra-smoothing / max-merge=3 / limit-refs=3 / limit-modes / me=3 / subme=3 / merange=57 / temporal-mvp / weightp / no-weightb / no-analyze-src-pics / deblock=-3:-3 / no-sao / no-sao-non-deblock / rd=4 / no-early-skip / rskip / no-fast-intra / no-tskip-fast / no-cu-lossless / no-b-intra / no-splitrd-skip / rdpenalty=0 / psy-rd=2.00 / psy-rdoq=1.00 / no-rd-refine / no-lossless / cbqpoffs=0 / crqpoffs=0 / rc=crf / crf=17.0 / qcomp=0.60 / qpstep=4 / stats-write=0 / stats-read=0 / vbv-maxrate=160000 / vbv-bufsize=160000 / vbv-init=0.9 / crf-max=0.0 / crf-min=0.0 / ipratio=1.40 / pbratio=1.30 / aq-mode=1 / aq-strength=1.00 / cutree / zone-count=0 / no-strict-cbr / qg-size=32 / no-rc-grain / qpmax=69 / qpmin=0 / no-const-vbv / sar=1 / overscan=0 / videoformat=5 / range=0 / colorprim=9 / transfer=16 / colormatrix=9 / chromaloc=1 / chromaloc-top=2 / chromaloc-bottom=2 / display-window=0 / master-display=G(13250,34500)B(7500,3000)R(34000,16000)WP(15635,16450)L(10000000,00) / max-cll=1000,400 / min-luma=0 / max-luma=1023 / log2-max-poc-lsb=8 / vui-timing-info / vui-hrd-info / slices=1 / no-opt-qp-pps / no-opt-ref-list-length-pps / no-multi-pass-opt-rps / scenecut-bias=0.05 / no-opt-cu-delta-qp / no-aq-motion / hdr / hdr-opt / no-dhdr10-opt / no-idr-recovery-sei / analysis-reuse-level=5 / scale-factor=0 / refine-intra=0 / refine-inter=0 / refine-mv=0 / no-limit-sao / ctu-info=0 / no-lowpass-dct / refine-mv-type=0 / copy-pic=1 / max-ausize-factor=1.0 / no-dynamic-refine / no-single-sei
Default                                  : Yes
Forced                                   : No
Color range                              : Limited
Color primaries                          : BT.2020
Transfer characteristics                 : SMPTE ST 2084
Matrix coefficients                      : BT.2020 non-constant
Mastering display color primaries        : R: x=0.680000 y=0.320000, G: x=0.265000 y=0.690000, B: x=0.150000 y=0.060000, White point: x=0.312700 y=0.329000
Mastering display luminance              : min: 0.0000 cd/m2, max: 1000.0000 cd/m2
Maximum Content Light Level              : 1000 cd/m2
Maximum Frame-Average Light Level        : 400 cd/m2

Audio #1
ID                                       : 2
Format                                   : DTS
Format/Info                              : Digital Theater Systems
Format profile                           : MA / Core
Mode                                     : 16
Format settings, Endianness              : Big
Codec ID                                 : A_DTS
Duration                                 : 34 min 55 s
Bit rate mode                            : Variable / Constant
Bit rate                                 : 3 667 kb/s / 1 509 kb/s
Channel(s)                               : 6 channels
Channel positions                        : Front: L C R, Side: L R, LFE
Sampling rate                            : 48.0 kHz
Frame rate                               : 93.750 FPS (512 spf)
Bit depth                                : 24 bits
Compression mode                         : Lossless / Lossy
Stream size                              : 916 MiB (7%)
Title                                    : Surround 5.1
Language                                 : English
Default                                  : Yes
Forced                                   : No

Audio #2
ID                                       : 3
Format                                   : PCM
Codec ID                                 : A_PCM/INT/LIT
Duration                                 : 34 min 55 s
Bit rate mode                            : Constant
Bit rate                                 : 1 536 kb/s
Channel(s)                               : 2 channels
Sampling rate                            : 48.0 kHz
Frame rate                               : 30.000 FPS (1600 spf)
Bit depth                                : 16 bits
Stream size                              : 384 MiB (3%)
Title                                    : Stereo
Language                                 : English
Default                                  : No
Forced                                   : No

Audio #3
ID                                       : 4
Format                                   : TrueHD
Format profile                           : TrueHD+Atmos / TrueHD
Codec ID                                 : A_TRUEHD
Duration                                 : 34 min 55 s
Bit rate mode                            : Variable
Bit rate                                 : 4 052 kb/s
Maximum bit rate                         : 6 765 kb/s
Channel(s)                               : Object Based / 8 channels
Channel positions                        : Object Based / Front: L C R, Side: L R, Back: L R, LFE
Sampling rate                            :  / 48.0 kHz
Frame rate                               : 1 200.000 FPS (40 spf)
Compression mode                         : Lossless
Stream size                              : 1 012 MiB (7%)
Title                                    : Surround 7.1
Language                                 : English
Default                                  : No
Forced                                   : No

Audio #4
ID                                       : 5
Format                                   : AC-3
Format/Info                              : Audio Coding 3
Format settings, Endianness              : Big
Codec ID                                 : A_AC3
Duration                                 : 34 min 55 s
Bit rate mode                            : Constant
Bit rate                                 : 640 kb/s
Channel(s)                               : 6 channels
Channel positions                        : Front: L C R, Side: L R, LFE
Sampling rate                            : 48.0 kHz
Frame rate                               : 31.250 FPS (1536 spf)
Bit depth                                : 16 bits
Compression mode                         : Lossy
Stream size                              : 160 MiB (1%)
Title                                    : Surround 5.1
Language                                 : English
Service kind                             : Complete Main
Default                                  : No
Forced                                   : No

Menu
00:00:00.000                             : en:Chapter 01
00:14:37.000                             : en:Chapter 02
00:24:01.916                             : en:Chapter 03
00:33:33.291                             : en:Chapter 04

4K (Khatia.Buniatishvili.and.Zubin.Mehta.Beethoven.2016.2160p.UHD.MBLURAY.x265-SNTN):

https://subyshare.com/ipxjvxwdx1kb/Khatia.Buniatishvili.and.Zubin.Mehta.Beeth0ven.2016.2160p.UHD.MBLURAY.x265-SNTN.part01.rar.html
https://subyshare.com/kuae3qli8o7t/Khatia.Buniatishvili.and.Zubin.Mehta.Beeth0ven.2016.2160p.UHD.MBLURAY.x265-SNTN.part02.rar.html
https://subyshare.com/d87uwpgvc8le/Khatia.Buniatishvili.and.Zubin.Mehta.Beeth0ven.2016.2160p.UHD.MBLURAY.x265-SNTN.part03.rar.html
https://subyshare.com/xxunv5tcqy48/Khatia.Buniatishvili.and.Zubin.Mehta.Beeth0ven.2016.2160p.UHD.MBLURAY.x265-SNTN.part04.rar.html
https://subyshare.com/mjmy91p0nihj/Khatia.Buniatishvili.and.Zubin.Mehta.Beeth0ven.2016.2160p.UHD.MBLURAY.x265-SNTN.part05.rar.html
https://subyshare.com/r10c18p0fjlu/Khatia.Buniatishvili.and.Zubin.Mehta.Beeth0ven.2016.2160p.UHD.MBLURAY.x265-SNTN.part06.rar.html
https://subyshare.com/zdoqmiyeqk0o/Khatia.Buniatishvili.and.Zubin.Mehta.Beeth0ven.2016.2160p.UHD.MBLURAY.x265-SNTN.part07.rar.html
https://subyshare.com/w1pyu5km0iva/Khatia.Buniatishvili.and.Zubin.Mehta.Beeth0ven.2016.2160p.UHD.MBLURAY.x265-SNTN.part08.rar.html
https://subyshare.com/hh8lvbv7ozom/Khatia.Buniatishvili.and.Zubin.Mehta.Beeth0ven.2016.2160p.UHD.MBLURAY.x265-SNTN.part09.rar.html
https://subyshare.com/00a6jp9gzq1p/Khatia.Buniatishvili.and.Zubin.Mehta.Beeth0ven.2016.2160p.UHD.MBLURAY.x265-SNTN.part10.rar.html

Blu-Ray Disc:

https://subyshare.com/sg7mtp58ls77/LisztBeeth0ven.Pian0C0ncert0s.KhatiaBuniatishviliIP0ZubinMehta.2016.BD1080i.part01.rar.html
https://subyshare.com/qlb47t0442d7/LisztBeeth0ven.Pian0C0ncert0s.KhatiaBuniatishviliIP0ZubinMehta.2016.BD1080i.part02.rar.html
https://subyshare.com/10us9es8kcan/LisztBeeth0ven.Pian0C0ncert0s.KhatiaBuniatishviliIP0ZubinMehta.2016.BD1080i.part03.rar.html
https://subyshare.com/obob5dvara8l/LisztBeeth0ven.Pian0C0ncert0s.KhatiaBuniatishviliIP0ZubinMehta.2016.BD1080i.part04.rar.html
https://subyshare.com/u9gv2gpjejkd/LisztBeeth0ven.Pian0C0ncert0s.KhatiaBuniatishviliIP0ZubinMehta.2016.BD1080i.part05.rar.html
https://subyshare.com/2hkx0ittt8q3/LisztBeeth0ven.Pian0C0ncert0s.KhatiaBuniatishviliIP0ZubinMehta.2016.BD1080i.part06.rar.html
https://subyshare.com/h4809b8fn2lg/LisztBeeth0ven.Pian0C0ncert0s.KhatiaBuniatishviliIP0ZubinMehta.2016.BD1080i.part07.rar.html
https://subyshare.com/pxxxsbdwykwf/LisztBeeth0ven.Pian0C0ncert0s.KhatiaBuniatishviliIP0ZubinMehta.2016.BD1080i.part08.rar.html
https://subyshare.com/gr6tfc6gb6iu/LisztBeeth0ven.Pian0C0ncert0s.KhatiaBuniatishviliIP0ZubinMehta.2016.BD1080i.part09.rar.html
https://subyshare.com/021paklp3r7u/LisztBeeth0ven.Pian0C0ncert0s.KhatiaBuniatishviliIP0ZubinMehta.2016.BD1080i.part10.rar.html

BD to FLAC 24-48

https://subyshare.com/zdwaeeqx9nry/KhatiaBuniatishviliZubinMehtaLisztPian0C0ncert02Beeth0venPian0C0ncert012015S0nyBDFLAC2448.rar.html