Diana Krall – The Girl In The Other Room (2004) [2.0 & 5.1] {PS3 ISO + FLAC}

Diana Krall – The Girl In The Other Room (2004) [2.0 & 5.1]
PS3 Rip | ISO | SACD DST64 2.0 & 5.1 > 1-bit/2.8224 MHz | 56:01 minutes | Scans included | 3,61 GB
or FLAC 2.0 (converted with foobar2000 to tracks) 24bit/88,2 kHz | 55:39 minutes | Scans included | 1,1 GB
SACD Hybrid release from Diana Krall. Features 2.0 Stereo and 5.1 multichannel surround sound

Singer/pianist Diana Krall breaks new ground interpreting modern standards by Tom Waits, Mose Allison, and Joni Mitchell, as well as compositions by herself and new husband, Elvis Costello. Krall’s piano-jazz cred comes through loudly and clearly on her Count Basie-styled version of the Bonnie Raitt staple “Love Me Like a Man” (written by folk-bluesman Chris Smither). But it’s the collaborations with her spouse that unearth untapped emotional nuances of her velvet voice; many are reminiscent of Bill Evans’s moody, impressionistic pieces. The title track, “Narrow Daylight,” “Abandoned Masquerade,” and “I’m Coming Through” all deal with love and loss. “Departure Bay,” a picturesque ode to her hometown of Nanaimo, B.C., proves that this is the start of something big, and that two heads–and hearts–are better than one.

While the jazz fascists (read: purists) may be screaming “sellout” because Diana Krall decided to record something other than standards this time out, the rest of us can enjoy the considerable fruit of her labors. The Girl in the Other Room is, without question, a jazz record in the same manner her other outings are. The fact that it isn’t made up of musty and dusty “classics” may irk the narrow-minded and reactionary, but it doesn’t change the fact that this bold recording is a jazz record made with care, creativity, and a wonderfully intimate aesthetic fueling its 12 songs. Produced by Tommy LiPuma and Krall, the non-original material ranges from the Mississippi-fueled jazzed-up blues of Mose Allison’s “Stop This World” to contemporary songs that are reinvented in Krall’s image by Tom Waits (“Temptation”), Joni Mitchell (“Black Crow”), Chris Smither (“Love Me Like a Man”), and her husband, Elvis Costello (“Almost Blue”). These covers are striking. Krall’s read of Allison’s tune rivals his and adds an entirely different shade of meaning, as does her swinging, jazzy, R&B-infused take on Smither’s sexy nugget via its first hitmaker, Bonnie Raitt. Her interpretation of Waits’ “Temptation” is far more sultry than Holly Cole’s because Krall understands this pop song to be a jazz tune rather than a jazzy pop song. “Black Crow” exists in its own space in the terrain of the album, because Krall understands that jazz is not mere articulation but interpretation. Likewise, her reverent version of Costello’s “Almost Blue” takes it out of its original countrypolitan setting and brings it back to the blues.

As wonderful as these songs are, however, they serve a utilitarian purpose; they act as bridges to the startling, emotionally charged poetics in the material Krall has composed with Costello. Totaling half the album, this material is full of grief, darkness, and a tentative re-emergence from the shadows. It begins in the noir-ish melancholy of the title track, kissed with bittersweet agony by Gershwin’s “Summertime.” The grain in Krall’s pained voice relates an edgy third-person tale that is harrowing in its lack of revelation and in the way it confounds the listener; it features John Clayton on bass and Jeff Hamilton on drums. In “I’ve Changed My Address,” Krall evokes the voices of ghosts such as Louis Armstrong and Anita O’Day in a sturdy hip vernacular that channels the early beat jazz of Waits and Allison. The lyric is solid and wonderfully evocative not only of time and place, but of emotional terrain. Krall’s solo in the tune is stunning. “Narrow Daylight,” graced by gospel overtones, is a tentative step into hope with its opening line: “Narrow daylight enters the room, winter is over, summer is near.” This glimmer of hope is short-lived, however, as “Abandoned Masquerade” reveals the shattered promise in the aftermath of dying love. “I’m Coming Through” and “Departure Bay,” which close the set, are both underscored by the grief experienced at the loss of Krall’s mother. They are far from sentimental, nor are they sophomoric, but through the eloquence of Krall’s wonderfully sophisticated melodic architecture and rhythmic parlance they express the experience of longing, of death, and of acceptance. The former features a beautiful solo by guitarist Anthony Wilson and the latter, in its starkness, offers memory as reflection and instruction. This is a bold new direction by an artist who expresses great willingness to get dirt on her hands and to offer its traces and smudges as part and parcel of her own part in extending the jazz tradition, through confessional language and a wonderfully inventive application that is caressed by, not saturated in, elegant pop.

Tracklist:
01. Stop This World
02. The Girl In The Other Room
03. Temptation
04. Almost Blue
05. I’ve Changed My Address
06. Love Me Like A Man
07. I’m Pulling Through
08. Black Crow
09. Narrow Daylight
10. Abandoned Masquerade
11. I’m Coming Through
12. Departure Bay

– Diana Krall: vocals, piano
with:
– Anthony Wilson: guitar
– Neil Larsen: Hammond B-3 (3)
– Christian McBride: bass (1,3,4,7-12)
– John Clayton: bass (2,5,6)
– Peter Erskine: drums (1,4,7-12)
– Jeff Hamilton: drums (2,5.6)
– Terri Lyne Carrington: drums (3)

Produced by Tommy LiPuma ana Diana Krall.
Recorded by Al Schmitt at Capitol Studios, Hollywood and Avatar Studio, New York.
Assisted at Avatar Studio by Brian Montgomery. ProToois Engineer at Capitol Studios: Steve Genewick.
Mixed by Ai Schmitt at Capitol Studios, Hollywood. Mastered by Doug Sax and Robert Hadley at The Mastering Lab, Los Angeles.

foobar2000 1.1.15 / Dynamic Range Meter 1.1.1
--------------------------------------------------------------------------------
Analyzed: Diana Krall / The Girl In The Other Room
--------------------------------------------------------------------------------
DR Peak RMS Duration Track
--------------------------------------------------------------------------------
DR14 -4.25 dB -23.77 dB 4:11 01-Stop This World
DR17 -3.94 dB -27.66 dB 4:05 02-The Girl In The Other Room
DR15 -5.49 dB -25.68 dB 4:30 03-Temptation
DR12 -9.11 dB -29.36 dB 4:05 04-Almost Blue
DR14 -5.28 dB -25.99 dB 4:47 05-I've Changed My Address
DR15 -3.88 dB -23.66 dB 5:51 06-Love Me Like A Man
DR13 -8.09 dB -27.20 dB 4:03 07-I'm Pulling Through
DR16 -3.67 dB -25.02 dB 4:57 08-Black Crow
DR14 -5.25 dB -25.79 dB 3:32 09-Narrow Daylight
DR18 -3.66 dB -28.27 dB 5:12 10-Abandoned Masquerade
DR16 -4.06 dB -27.84 dB 5:07 11-I'm Coming Through
DR15 -6.96 dB -28.09 dB 5:40 12-Departure Bay
--------------------------------------------------------------------------------
Number of tracks: 12
Official DR value: DR15
Samplerate: 2822400 Hz / PCM Samplerate: 88200 Hz
Channels: 6
Bits per sample: 24
Bitrate: 16934 kbps
Codec: DST64
================================================================================
--------------------------------------------------------------------------------
Analyzed: Diana Krall / The Girl In The Other Room
--------------------------------------------------------------------------------
DR Peak RMS Duration Track
--------------------------------------------------------------------------------
DR14 -4.15 dB -20.64 dB 3:58 01-Stop This World
DR15 -4.36 dB -22.20 dB 4:05 02-The Girl In The Other Room
DR15 -4.69 dB -21.93 dB 4:28 03-Temptation
DR14 -5.39 dB -23.83 dB 4:04 04-Almost Blue
DR14 -4.19 dB -21.39 dB 4:46 05-I've Changed My Address
DR14 -4.64 dB -20.77 dB 5:49 06-Love Me Like A Man
DR14 -5.32 dB -22.53 dB 4:02 07-I'm Pulling Through
DR13 -5.03 dB -22.22 dB 4:55 08-Black Crow
DR13 -5.10 dB -22.30 dB 3:32 09-Narrow Daylight
DR17 -4.71 dB -24.80 dB 5:12 10-Abandoned Masquerade
DR14 -4.48 dB -22.69 dB 5:08 11-I'm Coming Through
DR13 -5.43 dB -21.83 dB 5:40 12-Departure Bay
--------------------------------------------------------------------------------
Number of tracks: 12
Official DR value: DR14
Samplerate: 2822400 Hz / PCM Samplerate: 88200 Hz
Channels: 2
Bits per sample: 24
Bitrate: 5645 kbps
Codec: DST64

ISO

http://usenetsearch.pw/bea14dbcd98/www.hdmusic.me_DianaKrall-TheGirlInTheOtherRoom2004SACD-ISO.part1.rar
http://usenetsearch.pw/a186b91b742/www.hdmusic.me_DianaKrall-TheGirlInTheOtherRoom2004SACD-ISO.part2.rar
http://usenetsearch.pw/bea14dbcd99/www.hdmusic.me_DianaKrall-TheGirlInTheOtherRoom2004SACD-ISO.part3.rar
http://usenetsearch.pw/bea14dbcd9a/www.hdmusic.me_DianaKrall-TheGirlInTheOtherRoom2004SACD-ISO.part4.rar

or

http://usenetsearch.pw/z88b86e7nwwl/www.hdmusic.me_DianaKrall-TheGirlInTheOtherRoom2004SACD-ISO.part1.rar.html
http://usenetsearch.pw/6ve2s64r0fco/www.hdmusic.me_DianaKrall-TheGirlInTheOtherRoom2004SACD-ISO.part2.rar.html
http://usenetsearch.pw/ov0xmkhws9c9/www.hdmusic.me_DianaKrall-TheGirlInTheOtherRoom2004SACD-ISO.part3.rar.html
http://usenetsearch.pw/g95tl1ztmqmv/www.hdmusic.me_DianaKrall-TheGirlInTheOtherRoom2004SACD-ISO.part4.rar.html

or

http://usenetsearch.pw/file/brg4hzk3/www.hdmusic.me_DianaKrall-TheGirlInTheOtherRoom2004SACD-ISO.part1.rar
http://usenetsearch.pw/file/8b15twjw/www.hdmusic.me_DianaKrall-TheGirlInTheOtherRoom2004SACD-ISO.part2.rar
http://usenetsearch.pw/file/fpmyqn3v/www.hdmusic.me_DianaKrall-TheGirlInTheOtherRoom2004SACD-ISO.part3.rar
http://usenetsearch.pw/file/7ci0271q/www.hdmusic.me_DianaKrall-TheGirlInTheOtherRoom2004SACD-ISO.part4.rar

FLAC

http://usenetsearch.pw/a186b91b741/www.hdmusic.me_DianaKrall-TheGirlInTheOtherRoom2004FLAC24-88.2.part1.rar
http://usenetsearch.pw/dbbbe256e68/www.hdmusic.me_DianaKrall-TheGirlInTheOtherRoom2004FLAC24-88.2.part2.rar

or

http://usenetsearch.pw/y5kcb22vqis3/www.hdmusic.me_DianaKrall-TheGirlInTheOtherRoom2004FLAC24-88.2.part1.rar.html
http://usenetsearch.pw/5hfvforuqbyd/www.hdmusic.me_DianaKrall-TheGirlInTheOtherRoom2004FLAC24-88.2.part2.rar.html

or

http://usenetsearch.pw/file/6o29gw0g/www.hdmusic.me_DianaKrall-TheGirlInTheOtherRoom2004FLAC24-88.2.part1.rar
http://usenetsearch.pw/file/pw0rwh9k/www.hdmusic.me_DianaKrall-TheGirlInTheOtherRoom2004FLAC24-88.2.part2.rar