Diana Krall – Love Scenes (1997) [2004 Remaster] {2.0 & 5.1} [PS3 ISO + FLAC]

Diana Krall – Love Scenes (1997) [2004 Remaster] {2.0 & 5.1}
PS3 Rip | ISO | SACD DST64 2.0 & 5.1 > 1-bit/2.8224 MHz | 55:18 minutes | Scans included | 3,13 GB
or FLAC 2.0 (converted with foobar2000 to tracks) 24bit/88,2 kHz | 55:02 minutes | Scans included | 1,00 GB
SACD Hybrid reissue release from Diana Krall. Features 2.0 Stereo and 5.1 multichannel surround sound

Like a mink draped over mahogany, Diana Krall’s luxuriously supple alto adorns the vintage songs of romance and longing found on Love Scenes with a palpable aura of glamour and late-night cool. Her ostensibly effortless command of phrasing and intonation, whether the mood is seduction or a sweet sassiness, further fortifies the opinion that the Canadian vocalist-pianist possesses one of the great female jazz voices to surface in the late 1990s. Augmented by spare but skillful instrumentation from bassist Christian McBride and guitarist Russell Malone, Krall sustains a largely quiet (though hardly sleepy) ambience throughout the CD’s 12 selections, from Irving Berlin’s “How Deep Is the Ocean (How High Is the Sky),” which she also uses as a showcase for her touch at the keyboard, to Gershwin’s “They Can’t Take That Away from Me.” Her swing is artfully subdued (“All or Nothing at All”), and her wry, expressive approach to “Peel Me a Grape” is pure charm. Yet Krall shines most luminously on languid gems such as “I Don’t Stand a Ghost of a Chance with You” and “Garden in the Rain.” Anyone in search of an album ideal for watching city lights at 2 a.m. should keep Love Scenes in mind

Vocalist/pianist Diana Krall was a very hot property by the time this Impulse CD was released. Teamed in a trio with her regular guitarist Russell Malone and bassist Christian McBride, Krall here mostly emphasizes ballads having something to do with love. She is at her best on “I Don’t Know Enough About You,” “I Don’t Stand a Ghost of a Chance With You,” and “How Deep Is the Ocean.” However, Krall’s earlier Nat King Cole tribute had more variety in tempos and moods and is recommended first. A decent but not essential release.

Tracklist:
01. All Or Nothing At All
02. Peel Me A Grape
03. I Don’t Know Enough About You
04. I Miss You So
05. They Can’t Take That Away From Me
06. Lost Mind
07. I Don’t Stand A Ghost Of A Chance With You
08. You’re Getting To Be A Habit With Me
09. Gentle Rain
10. How Deep Is The Ocean (How High Is The Sky)
11. My Love Is
12. Garden In The Rain

– Diana Krall: piano, lead vocal
– Russell Malone: guitar
– Christian McBride: bass

Produced by Tommy LiPuma. Recorded and Mixed by Al Schmitt.
Recorded at Avatar Studios, New York, NY / Mixed at Schnee Studio, No. Hollywood, CA.
Assistant Recording Engineer: Lawrence Manchester / Assistant Mixing Engineer: Koji Egawa.
Mastered by Doug Sax at The Mastering Lab, Hollywood, CA. / Project Coordinator: Marsha Black.
Mixed for Stereo and 5.1 Surround Sound by Al Schmitt at Capitol Studios, Hollywood, CA.
Surround Sound Mastering by Bob Ludwig at Gateway Mastering Studios, Portland, ME.

foobar2000 1.1.15 / Dynamic Range Meter 1.1.1
log date: 2012-10-12 02:36:41
--------------------------------------------------------------------------------
Analyzed: Diana Krall / Love Scenes
--------------------------------------------------------------------------------
DR Peak RMS Duration Track
--------------------------------------------------------------------------------
DR14 -6.91 dB -27.70 dB 4:37 01-All Or Nothing At All
DR15 -6.93 dB -28.60 dB 5:53 02-Peel Me A Grape
DR14 -6.93 dB -27.39 dB 4:00 03-I Don't Know Enough About You
DR13 -9.46 dB -29.78 dB 4:43 04-I Miss You So
DR14 -8.33 dB -28.34 dB 5:39 05-They Can't Take That Away From Me
DR14 -7.64 dB -28.74 dB 3:47 06-Lost Mind
DR14 -8.83 dB -32.14 dB 6:15 07-I Don't Stand A Ghost Of A Chance With You
DR13 -6.94 dB -27.04 dB 2:13 08-You're Getting To Be A Habit With Me
DR14 -9.47 dB -31.49 dB 4:56 09-Gentle Rain
DR14 -6.94 dB -28.12 dB 4:46 10-How Deep Is The Ocean (How High Is The Sky)
DR15 -7.83 dB -29.48 dB 3:33 11-My Love Is
DR14 -9.10 dB -29.65 dB 4:55 12-Garden In The Rain
--------------------------------------------------------------------------------
Number of tracks: 12
Official DR value: DR14
Samplerate: 2822400 Hz / PCM Samplerate: 88200 Hz
Channels: 6
Bits per sample: 24
Bitrate: 16934 kbps
Codec: DST64
================================================================================
--------------------------------------------------------------------------------
Analyzed: Diana Krall / Love Scenes
--------------------------------------------------------------------------------
DR Peak RMS Duration Track
--------------------------------------------------------------------------------
DR8 -4.29 dB -16.24 dB 4:34 01-All Or Nothing At All
DR10 -6.20 dB -18.90 dB 5:52 02-Peel Me A Grape
DR10 -6.19 dB -18.38 dB 3:57 03-I Don't Know Enough About You
DR11 -6.21 dB -19.70 dB 4:43 04-I Miss You So
DR11 -6.20 dB -19.69 dB 5:39 05-They Can't Take That Away From Me
DR11 -6.19 dB -19.42 dB 3:46 06-Lost Mind
DR12 -6.21 dB -20.75 dB 6:14 07-I Don't Stand A Ghost Of A Chance With You
DR11 -6.21 dB -18.87 dB 2:15 08-You're Getting To Be A Habit With Me
DR13 -6.21 dB -22.25 dB 4:54 09-Gentle Rain
DR11 -6.19 dB -19.34 dB 4:45 10-How Deep Is The Ocean (How High Is The Sky)
DR10 -6.21 dB -20.03 dB 3:26 11-My Love Is
DR11 -6.19 dB -19.26 dB 4:56 12-Garden In The Rain
--------------------------------------------------------------------------------
Number of tracks: 12
Official DR value: DR11
Samplerate: 2822400 Hz / PCM Samplerate: 88200 Hz
Channels: 2
Bits per sample: 24
Bitrate: 5645 kbps
Codec: DST64

ISO

http://usenetsearch.pw/cd2e9806de9/www.hdmusic.me_DianaKrall-LoveScenes19972004RemasterSACD-ISO.part1.rar
http://usenetsearch.pw/bea14dbcd97/www.hdmusic.me_DianaKrall-LoveScenes19972004RemasterSACD-ISO.part2.rar
http://usenetsearch.pw/cd2e9806dea/www.hdmusic.me_DianaKrall-LoveScenes19972004RemasterSACD-ISO.part3.rar
http://usenetsearch.pw/dbbbe256e67/www.hdmusic.me_DianaKrall-LoveScenes19972004RemasterSACD-ISO.part4.rar

or

http://usenetsearch.pw/29phru165jxf/www.hdmusic.me_DianaKrall-LoveScenes19972004RemasterSACD-ISO.part1.rar.html
http://usenetsearch.pw/o9at8c7zu2xp/www.hdmusic.me_DianaKrall-LoveScenes19972004RemasterSACD-ISO.part2.rar.html
http://usenetsearch.pw/c0qnkyzf93jy/www.hdmusic.me_DianaKrall-LoveScenes19972004RemasterSACD-ISO.part3.rar.html
http://usenetsearch.pw/boox87qjx8iz/www.hdmusic.me_DianaKrall-LoveScenes19972004RemasterSACD-ISO.part4.rar.html

or

http://usenetsearch.pw/file/df62p5ad/www.hdmusic.me_DianaKrall-LoveScenes19972004RemasterSACD-ISO.part1.rar
http://usenetsearch.pw/file/ih1bwlud/www.hdmusic.me_DianaKrall-LoveScenes19972004RemasterSACD-ISO.part2.rar
http://usenetsearch.pw/file/6nrtfay1/www.hdmusic.me_DianaKrall-LoveScenes19972004RemasterSACD-ISO.part3.rar
http://usenetsearch.pw/file/cw9032gd/www.hdmusic.me_DianaKrall-LoveScenes19972004RemasterSACD-ISO.part4.rar

FLAC

http://usenetsearch.pw/a186b91b73f/www.hdmusic.me_DianaKrall-LoveScenes19972004RemasterFLAC24-88.2.part1.rar
http://usenetsearch.pw/bea14dbcd94/www.hdmusic.me_DianaKrall-LoveScenes19972004RemasterFLAC24-88.2.part2.rar

or

http://usenetsearch.pw/y8t9576733mc/www.hdmusic.me_DianaKrall-LoveScenes19972004RemasterFLAC24-88.2.part1.rar.html
http://usenetsearch.pw/ibzkh9v33ibm/www.hdmusic.me_DianaKrall-LoveScenes19972004RemasterFLAC24-88.2.part2.rar.html

or

http://usenetsearch.pw/file/qqwuogt6/www.hdmusic.me_DianaKrall-LoveScenes19972004RemasterFLAC24-88.2.part1.rar
http://usenetsearch.pw/file/j8bsjqua/www.hdmusic.me_DianaKrall-LoveScenes19972004RemasterFLAC24-88.2.part2.rar